<?xml version="1.0" encoding="UTF-8" standalone="no"?>
<svg xmlns="http://www.w3.org/2000/svg">
  <defs>
    <font id="FrankRuhlLibre">
      <glyph unicode=" "></glyph>
      <glyph unicode="!" d="M136 201L86 548Q85 558 85 565T84 580T83 593Q83 615 90 632T115 660T160 671Q189 671 206 661T230 633T238 593Q238 585 237 574T234 548L184 201H136ZM159 -10Q127 -10 104 12T81 68Q81 102 104 125T160 148Q194 148 216 125T238 68Q238 35 216 13T159 -10Z"></glyph>
      <glyph unicode="&quot;" d="M296 419Q280 419 274 428T267 444L247 582Q246 592 245 603T243 623Q243 642 254 658T296 675Q328 675 338 658T349 624Q349 614 348 603T345 582L326 444Q325 437 319 428T296 419ZM123 419Q107 419 101 428T93 444L74 582Q73 592 72 603T70 624Q70 641 81 658T123 675Q153 675 164 658T176 624Q176 614 175 603T172 582L152 444Q151 437 145 428T123 419Z"></glyph>
      <glyph unicode="#" d="M262 0L353 660H427L336 0H262ZM21 198V269H453V198H21ZM74 0L165 660H239L148 0H74ZM47 388V458H479V388H47Z"></glyph>
      <glyph unicode="$" d="M279 -5Q234 -5 193 4T120 30T70 71T51 123Q51 147 66 165T113 183Q142 183 157 167T173 126Q173 110 169 101T159 86T153 72Q153 57 173 47T223 31T280 26Q320 26 350 36T397 69T414 128Q414 163 395 188T346 230T279 263L219 289Q171 309 137 337T83 402T64 485Q64 539 91 579T168 643T288 666Q347 666 392 651T462 610T487 548Q487 522 472 505T426 488Q397 488 382 505T367 547Q367 562 371 569T379 582T384 594Q384 604 374 614T344 630T288 637Q227 637 194 612T161 544Q161 512 176 491T215 454T267 427L354 389Q411 365 447 336T500 272T517 193Q517 136 496 98T439 36T361 4T279 -5ZM260 -97V732H312V-97H260Z"></glyph>
      <glyph unicode="%" d="M215 -12L585 672H639L270 -12H215ZM225 321Q155 321 108 366T60 496Q60 550 82 589T141 649T225 670Q296 670 343 625T390 496Q390 444 369 405T310 344T225 321ZM225 352Q243 352 254 365T270 399T277 446T279 496Q279 518 277 543T270 589T254 625T225 639Q207 639 197 625T181 590T174 543T172 496Q172 474 173 450T180 403T196 366T225 352ZM636 -10Q566 -10 519 35T471 164Q471 219 492 258T551 318T636 339Q707 339 754 294T801 164Q801 113 780 74T721 12T636 -10ZM636 21Q654 21 664 34T680 68T688 115T690 164Q690 187 688 212T681 258T665 294T636 308Q618 308 607 294T591 259T584 212T582 164Q582 143 584 118T591 71T607 35T636 21Z"></glyph>
      <glyph unicode="&amp;" d="M266 -11Q200 -11 146 6T58 61T25 159Q25 205 43 236T92 290T161 330T238 367Q306 399 340 426T386 479T398 540Q398 595 377 619T321 643Q282 643 261 619T239 555Q239 530 250 506T282 457T331 400L546 168Q591 120 620 92T668 50T705 32T742 27V0H641Q579 0 544 9T488 33T447 70L198 334Q173 361 154 389T123 446T112 507Q112 559 140 596T216 652T323 672Q384 672 423 657T482 614T501 546Q501 517 489 495T449 451T379 405T274 350Q251 337 227 321T186 275T170 194Q170 144 188 112T238 65T313 49Q372 49 419 73T499 135T551 215T569 293Q569 314 563 324T540 338T493 341V366H681V341Q654 341 641 338T623 326T613 296Q602 252 585 208T541 125T475 55T385 7T266 -11Z"></glyph>
      <glyph unicode="'" d="M116 419Q100 419 94 428T87 444L67 582Q66 592 65 603T63 623Q63 642 74 658T116 675Q147 675 158 658T169 624Q169 614 168 603T165 582L145 444Q144 437 138 428T116 419Z"></glyph>
      <glyph unicode="(" d="M343 -124Q287 -123 244 -102T169 -42T117 45T86 151T76 266Q76 325 86 381T116 486T168 574T243 634T343 657L346 632Q311 622 285 588T241 503T215 392T206 267Q206 202 215 141T241 30T285 -55T346 -101L343 -124Z"></glyph>
      <glyph unicode=")" d="M29 -124L27 -101Q62 -90 88 -56T131 29T157 141T166 267Q166 331 158 391T132 502T88 587T27 632L29 657Q85 656 128 634T204 574T256 487T286 381T296 266Q296 207 286 151T256 46T204 -42T129 -101T29 -124Z"></glyph>
      <glyph unicode="*" d="M187 305Q159 305 147 317T139 347L167 446L163 448L91 374Q79 361 62 366T30 396Q16 421 21 438T43 459L142 485V488L42 513Q24 518 21 535T30 577Q45 601 61 606T92 598L164 524L167 525L139 625Q134 643 146 655T187 667Q215 667 228 655T236 625L207 524L210 522L284 598Q297 611 313 607T344 577Q358 552 354 535T332 513L229 488V485L332 458Q350 454 354 437T344 396Q329 371 313 366T283 374L210 449L207 448L236 347Q242 329 229 317T187 305Z"></glyph>
      <glyph unicode="+" d="M219 4V194H30V279H219V469H304V279H495V194H304V4H219Z"></glyph>
      <glyph unicode="," d="M86 -119L82 -88Q95 -86 111 -79T140 -60T153 -32Q153 -19 147 -16T129 -9Q114 -4 99 5T75 28T66 66Q66 98 86 121T142 144Q171 144 196 123T221 47Q221 6 205 -29T159 -88T86 -119Z"></glyph>
      <glyph unicode="-" d="M60 205V298H330V205H60Z"></glyph>
      <glyph unicode="." d="M148 -9Q117 -9 95 13T72 67Q72 98 95 121T149 144Q180 144 203 122T226 67Q226 36 203 14T148 -9Z"></glyph>
      <glyph unicode="/" d="M6 -12L262 671H356L101 -12H6Z"></glyph>
      <glyph unicode="0" d="M296 -11Q232 -11 185 15T107 87T62 196T47 330Q47 402 62 464T107 572T184 645T296 671Q361 671 408 645T485 573T530 464T545 330Q545 258 531 196T486 88T408 15T296 -11ZM296 24Q323 24 341 39T371 89T388 183T393 329Q393 443 384 510T354 606T296 636Q260 636 239 607T209 510T200 329Q200 242 205 183T221 89T250 39T296 24Z"></glyph>
      <glyph unicode="1" d="M107 0V35H174Q189 35 194 43T200 75V558Q166 542 131 526T67 500V549Q95 560 126 579T187 619T239 660H342V75Q342 52 347 44T371 35H440V0H107Z"></glyph>
      <glyph unicode="2" d="M42 0V10Q42 53 56 89T94 157T147 215T208 269Q245 300 277 333T330 407T351 506Q351 566 327 601T259 637Q234 637 218 626T202 596Q202 587 206 579T214 562T218 535Q218 505 199 484T145 462Q112 462 92 483T71 541Q71 589 101 618T181 659T283 672Q349 672 399 654T477 596T506 495Q506 444 485 407T420 338T312 267Q263 238 222 211T155 159T122 108H403Q430 108 446 114T471 135T486 173H519L489 0H42Z"></glyph>
      <glyph unicode="3" d="M240 -11Q181 -11 135 2T63 42T37 104Q37 140 59 160T112 181Q143 181 162 161T182 114Q182 103 179 95T174 79T171 63Q171 45 186 35T229 25Q284 25 312 67T340 188Q340 263 313 301T227 340Q220 340 206 340T166 337V381Q181 380 197 380T221 379Q255 379 274 393T302 429T314 472T317 510Q317 548 310 576T284 619T236 635Q213 635 197 625T181 600Q181 591 185 585T192 570T196 548Q196 520 177 502T126 484Q94 484 73 503T51 556Q51 593 78 619T151 658T249 671Q293 671 333 662T403 633T451 585T469 518Q469 478 449 447T391 395T301 365V362Q333 360 366 349T429 316T475 261T493 179Q493 93 427 41T240 -11Z"></glyph>
      <glyph unicode="4" d="M218 0V35H269Q280 35 286 42T293 69V172H27V238Q77 317 131 394T236 541T329 668H431V262H528V172H431V69Q431 49 437 42T456 35H505V0H218ZM97 262H293V546H290Q256 498 221 448T153 350T97 262Z"></glyph>
      <glyph unicode="5" d="M237 -11Q182 -11 139 2T72 42T47 104Q47 137 67 157T119 178Q149 178 170 160T191 114Q191 101 187 92T179 76T174 59Q174 42 192 34T232 25Q271 25 295 46T332 107T344 202Q344 290 316 328T234 367Q197 367 168 350T113 298H76L111 660H401Q424 660 434 664T448 685H481L451 556H139L118 359L120 358Q150 384 190 396T272 409Q340 409 390 383T469 311T497 207Q497 147 467 98T379 19T237 -11Z"></glyph>
      <glyph unicode="6" d="M304 -12Q221 -12 164 22T77 122T47 283Q47 380 76 454T160 581T292 659T464 686V652Q417 652 371 634T287 577T226 482T200 346L202 345Q228 379 262 400T351 421Q410 421 454 395T523 321T548 211Q548 146 520 96T437 17T304 -12ZM304 25Q337 25 358 46T390 105T401 191Q401 270 374 315T299 361Q254 361 228 321T201 203Q201 158 211 117T245 51T304 25Z"></glyph>
      <glyph unicode="7" d="M212 -12Q171 -12 151 11T131 77Q131 120 151 169T205 270T280 376Q294 394 309 414T340 456T369 495T394 529T412 554H146Q115 554 99 546T72 514L65 496H32L49 660H492V585Q480 570 465 548T432 502T400 454T372 412Q333 351 316 299T295 205T293 131T294 76Q293 33 272 11T212 -12Z"></glyph>
      <glyph unicode="8" d="M263 -11Q226 -11 187 -2T115 26T62 77T42 153Q42 213 78 253T169 320Q123 348 94 386T64 482Q64 541 95 583T178 648T288 671Q319 671 354 664T420 639T470 596T489 529Q489 491 471 464T425 417T366 381Q407 360 439 334T489 273T508 190Q508 125 474 80T384 12T263 -11ZM266 25Q301 25 329 38T374 76T391 131Q391 161 375 183T332 224T270 261T201 301Q179 283 164 263T142 220T135 169Q135 129 150 97T194 45T266 25ZM334 399Q366 422 381 458T397 525Q397 572 366 604T285 636Q241 636 211 610T180 543Q180 517 193 497T228 461T278 429T334 399Z"></glyph>
      <glyph unicode="9" d="M136 -28V5Q183 5 229 24T313 81T374 177T400 313H398Q372 281 338 259T248 238Q191 238 147 264T77 338T52 448Q52 513 80 563T163 642T296 671Q379 671 436 637T523 537T553 375Q553 279 524 205T439 78T308 -1T136 -28ZM301 298Q346 298 372 338T399 456Q399 502 389 542T356 608T296 634Q263 634 242 613T210 554T199 468Q199 389 226 344T301 298Z"></glyph>
      <glyph unicode=":" d="M148 267Q116 267 94 289T72 344Q72 375 95 397T148 420Q180 420 203 398T226 344Q226 312 203 290T148 267ZM148 -9Q117 -9 95 13T72 67Q72 99 95 121T148 144Q180 144 203 122T226 67Q226 36 203 14T148 -9Z"></glyph>
      <glyph unicode=";" d="M86 -119L82 -88Q95 -86 111 -79T140 -60T153 -32Q153 -19 147 -16T130 -9Q114 -4 99 5T75 28T66 66Q66 98 86 121T142 144Q171 144 196 123T221 47Q221 6 205 -29T159 -88T86 -119ZM142 267Q111 267 89 289T66 343Q66 375 88 397T142 420Q173 420 196 398T219 343Q219 312 197 290T142 267Z"></glyph>
      <glyph unicode="&lt;" d="M515 -7L46 197V272L515 476V389L159 235L515 80V-7Z"></glyph>
      <glyph unicode="=" d="M30 291V376H499V291H30ZM30 93V178H499V93H30Z"></glyph>
      <glyph unicode="&gt;" d="M50 -7V80L405 235L50 389V476L519 272V197L50 -7Z"></glyph>
      <glyph unicode="?" d="M214 201V230Q214 282 225 317T252 377T285 425T313 476T324 546Q324 582 316 603T292 635T258 645Q241 645 227 639T203 622T194 597Q194 584 201 577T214 560T221 532Q221 502 201 483T146 464Q109 464 89 487T69 545Q69 581 88 605T139 643T206 664T276 671Q309 671 343 665T406 643T453 601T471 534Q471 496 455 469T415 421T363 381T311 342T270 294T254 230V201H214ZM238 -9Q207 -9 184 13T161 67Q161 98 184 121T239 144Q270 144 292 122T315 68Q315 36 292 14T238 -9Z"></glyph>
      <glyph unicode="@" d="M387 -13Q322 -13 260 5T147 60T67 156T37 292Q37 379 72 449T165 568T295 643T445 670Q515 670 573 648T674 588T738 500T761 395Q761 349 744 307T696 230T623 176T529 156Q483 156 464 176T454 237L466 286L463 288Q435 231 391 194T296 156Q261 156 234 179T207 252Q207 279 217 313T247 382T297 446T368 492T461 510Q480 510 490 507T514 496L517 506H618L551 249Q545 227 545 214T569 200Q595 200 615 218T650 265T673 328T681 393Q681 464 649 515T563 593T444 620Q378 620 324 593T230 519T169 413T147 291Q147 250 159 205T202 121T282 58T409 34Q455 34 499 43T576 65L586 36Q559 19 525 8T454 -8T387 -13ZM348 203Q362 203 379 220T414 263T447 319T471 374L505 467Q498 473 490 475T472 478Q445 478 422 461T381 415T350 356T331 295T324 246Q324 227 329 215T348 203Z"></glyph>
      <glyph unicode="A" d="M7 0V33Q35 33 51 37T76 53T95 88L315 660H411L619 83Q627 61 634 51T656 37T696 33V0H396V33H444Q464 33 469 44T467 75L308 518H305L148 72Q142 52 147 43T173 33H215V0H7ZM190 234L196 271H417L422 234H190Z"></glyph>
      <glyph unicode="B" d="M37 0V33Q70 33 85 37T105 54T110 89V569Q110 595 106 607T86 623T37 627V660H348Q424 660 478 645T562 596T591 508Q591 447 554 410T445 357V356Q502 346 541 323T599 264T619 177Q619 115 589 76T501 19T359 0H37ZM332 38Q375 38 403 53T446 100T460 176Q460 250 422 291T314 332H262V103Q262 67 277 53T332 38ZM262 371H312Q377 371 410 404T443 499Q443 540 429 567T386 608T313 622Q292 622 281 619T266 607T262 582V371Z"></glyph>
      <glyph unicode="C" d="M378 -12Q273 -12 197 26T80 139T39 323Q39 435 80 512T199 631T384 672Q437 672 470 663T524 645T557 635Q567 635 573 639T583 650L587 660H614L624 471H592Q585 506 571 535T533 588T477 623T404 636Q351 636 316 615T258 560T223 484T207 402T203 330Q203 266 214 210T249 113T311 48T403 24Q447 24 480 36T538 70T579 118T604 171L633 158Q623 128 605 98T556 42T482 3T378 -12Z"></glyph>
      <glyph unicode="D" d="M37 0V33Q76 33 92 37T112 53T116 89V570Q116 595 112 607T90 623T37 627V660H365Q536 659 625 583T714 339Q714 216 670 142T540 34T332 0H37ZM337 38Q393 38 433 56T499 110T538 202T551 336Q551 432 528 495T459 590T343 622Q317 622 301 620T276 610T268 585V96Q268 72 274 59T296 42T337 38Z"></glyph>
      <glyph unicode="E" d="M37 0V33Q71 33 86 37T105 53T110 89V570Q110 595 106 607T86 623T37 627V660H556V499H521Q509 548 493 575T448 612T372 622H300Q278 622 270 615T262 588V367H373Q403 367 419 374T442 401T455 456H484V234H455Q450 270 443 289T419 316T373 323H262V104Q262 76 268 62T297 43T371 38Q423 38 457 50T514 92T548 178H582L570 0H37Z"></glyph>
      <glyph unicode="F" d="M37 0V33Q71 33 86 37T105 53T110 89V570Q110 595 106 607T86 623T37 627V660H543V499H509Q496 549 480 575T435 612T359 622H300Q279 622 271 615T262 588V355H369Q399 355 415 362T438 388T451 444H480V221H451Q446 258 439 277T415 303T369 311H262V89Q262 66 267 54T289 38T341 33V0H37Z"></glyph>
      <glyph unicode="G" d="M375 -12Q272 -12 197 26T80 138T39 322Q39 432 80 510T199 630T381 672Q438 672 471 663T523 645T558 635Q567 635 574 639T583 650L587 660H617L624 470H592Q585 504 571 534T533 587T477 623T405 636Q352 636 316 615T258 559T223 483T207 401T203 328Q203 264 215 209T251 113T314 48T405 24Q425 24 440 27T469 35T492 45V209Q492 246 481 256T437 267H420V299H702V267H684Q662 267 652 256T641 209V0H611Q606 11 598 17T574 23Q564 23 548 18T509 6T453 -6T375 -12Z"></glyph>
      <glyph unicode="H" d="M37 0V33Q73 33 88 37T106 54T110 89V569Q110 594 106 606T87 622T37 627V660H334V627Q299 627 284 623T266 606T262 569V365H523V569Q523 594 520 606T501 622T451 627V660H747V627Q712 627 697 623T679 606T676 569V89Q676 66 679 54T698 37T747 33V0H451V33Q487 33 502 37T520 54T523 89V325H262V89Q262 66 265 54T284 37T334 33V0H37Z"></glyph>
      <glyph unicode="I" d="M37 0V33Q72 33 87 37T106 53T110 89V569Q110 594 106 606T86 623T37 627V660H334V627Q302 627 287 623T267 607T262 569V89Q262 64 267 52T287 37T334 33V0H37Z"></glyph>
      <glyph unicode="J" d="M68 -211Q-3 -211 -35 -184T-68 -119Q-68 -78 -46 -60T3 -42Q26 -42 48 -59T70 -108Q70 -125 66 -134T57 -150T52 -164Q52 -166 57 -170T73 -174Q99 -174 114 -161T137 -119T144 -50V569Q144 595 140 607T120 623T72 627V660H369V627Q335 627 320 623T300 607T296 569V84Q296 11 285 -44T249 -137T180 -192T68 -211Z"></glyph>
      <glyph unicode="K" d="M415 0V33H441Q464 33 465 46T448 86L278 339L381 442L564 178Q600 126 624 94T669 48T719 33V0H415ZM37 0V33Q72 33 87 37T106 53T110 89V569Q110 595 106 607T87 623T37 627V660H334V627Q302 627 287 623T267 607T262 569V89Q262 65 266 53T286 37T334 33V0H37ZM239 266V317L493 582Q509 600 507 613T484 627H454V660H668V627Q637 627 611 615T557 578T494 518L239 266Z"></glyph>
      <glyph unicode="L" d="M37 0V33Q72 33 87 37T106 53T110 89V569Q110 595 106 607T87 623T37 627V660H336V627Q303 627 287 623T267 607T262 569V101Q262 72 268 59T292 42T346 38Q400 38 436 50T495 93T530 177H565L553 0H37Z"></glyph>
      <glyph unicode="M" d="M27 0V33H47Q83 33 91 44T100 86V570Q100 595 96 607T76 623T26 627V660H257L433 210H435L607 660H828V627Q796 627 781 623T761 607T756 570V89Q756 66 760 54T780 37T828 33V0H538V33Q570 33 584 37T602 54T606 89V552H604L402 14H351L144 546H143V86Q143 53 152 43T197 33H227V0H27Z"></glyph>
      <glyph unicode="N" d="M507 -7L151 537H149V85Q149 57 159 45T199 33H233V0H33V33H59Q106 33 106 85V570Q106 595 102 607T82 623T32 627V660H251L561 181H564V579Q564 627 513 627H478V660H676V627H653Q607 627 607 579V-7H507Z"></glyph>
      <glyph unicode="O" d="M370 -11Q260 -11 187 30T77 147T39 331Q39 411 60 474T122 581T226 649T370 672Q451 672 513 649T617 582T679 474T700 331Q700 224 663 148T553 30T370 -11ZM370 25Q405 25 432 37T480 75T512 137T531 222T537 331Q537 406 527 463T496 558T444 616T370 636Q325 636 293 617T241 559T212 463T203 331Q203 271 209 223T227 137T259 75T306 38T370 25Z"></glyph>
      <glyph unicode="P" d="M37 0V33Q72 33 87 37T106 53T110 89V570Q110 595 106 607T86 623T37 627V660H336Q408 660 457 645T537 603T580 542T594 470Q594 424 578 386T526 320T436 277T302 262H262V89Q262 65 267 53T288 37T339 33V0H37ZM262 302H303Q363 302 400 342T438 467Q438 542 406 582T306 622Q278 622 270 615T262 587V302Z"></glyph>
      <glyph unicode="Q" d="M370 -11Q260 -11 187 30T77 147T39 331Q39 411 60 474T122 581T226 649T370 672Q451 672 513 649T617 582T679 474T700 331Q700 224 663 148T553 30T370 -11ZM471 -171Q424 -171 391 -158T335 -120T303 -63T292 5H448Q448 -31 456 -57T480 -97T517 -112Q536 -112 553 -105T585 -87L603 -120Q596 -128 578 -139T534 -161T471 -171ZM370 25Q405 25 432 37T480 75T512 137T531 222T537 331Q537 406 527 463T496 558T444 616T370 636Q325 636 293 617T241 559T212 463T203 331Q203 271 209 223T227 137T259 75T306 38T370 25Z"></glyph>
      <glyph unicode="R" d="M37 0V33Q72 33 87 37T106 53T110 89V570Q110 595 106 607T86 623T37 627V660H345Q430 660 483 641T562 586T588 498Q588 448 567 414T508 360T424 332V330Q467 321 492 303T531 255T553 181L561 139Q569 105 578 81T605 45T652 33V0H469Q455 11 443 35T423 92L393 230Q386 267 368 286T309 306H262V89Q262 65 266 53T286 37T333 33V0H37ZM262 346H303Q371 346 403 379T435 485Q435 554 405 588T309 622Q279 622 271 614T262 585V346Z"></glyph>
      <glyph unicode="S" d="M259 -12Q217 -12 189 -5T140 10T106 18Q95 18 88 13T77 0H49L36 191H71Q77 164 91 135T129 79T184 37T256 21Q289 21 317 32T362 69T380 133Q380 178 352 206T269 254L218 272Q167 292 128 317T66 381T44 474Q44 534 71 578T148 647T264 672Q300 672 324 666T365 652T399 645Q411 645 415 650T423 664H450L460 489H426Q416 537 394 570T339 622T267 640Q215 640 182 612T149 539Q149 503 170 481T220 446T273 422L338 398Q384 382 419 356T474 292T494 203Q494 153 477 113T428 45T353 3T259 -12Z"></glyph>
      <glyph unicode="T" d="M158 0V33Q195 33 211 37T231 52T236 88V625H189Q150 625 123 611T79 565T55 485H20L21 660H603V485H569Q559 540 542 570T497 612T430 625H388V88Q388 64 393 53T414 37T466 33V0H158Z"></glyph>
      <glyph unicode="U" d="M382 -12Q236 -12 171 44T105 224V570Q105 595 101 607T82 623T33 627V660H330V627Q297 627 282 624T262 608T257 570V219Q257 157 269 115T310 52T384 31Q430 31 458 51T500 114T513 219V570Q513 595 509 607T489 623T440 627V660H735V627Q701 627 686 623T667 607T663 570V224Q663 102 597 45T382 -12Z"></glyph>
      <glyph unicode="V" d="M290 0L87 577Q80 597 71 607T48 622T11 627V660H311V627H268Q248 627 242 617T243 584L394 150H397L539 580Q547 602 543 614T515 627H470V660H669V627Q637 627 620 614T590 566L385 0H290Z"></glyph>
      <glyph unicode="W" d="M243 0L81 577Q76 595 69 606T48 622T11 627V660H300V627H259Q239 627 233 618T234 586L340 193H343L474 646H574L705 197H709L806 580Q812 605 808 616T777 627H733V660H927V627Q904 627 890 621T865 597T846 544L698 0H614L469 483H466L323 0H243Z"></glyph>
      <glyph unicode="X" d="M349 0V33H388Q410 33 413 45T403 79L286 274H266L265 308L102 576Q89 598 79 609T56 623T18 627V660H321V627H290Q271 627 266 617T271 588L370 420H387L389 389L561 108Q580 79 594 63T627 40T673 33V0H349ZM12 0V33Q38 33 54 38T82 56T107 87L281 335L300 300L157 74Q147 56 153 45T178 33H220V0H12ZM372 356L366 409L469 577Q481 596 479 611T452 627H425V660H624V627Q599 627 582 622T550 604T519 568L372 356Z"></glyph>
      <glyph unicode="Y" d="M178 0V33Q214 33 230 37T250 53T255 90V254L94 577Q85 596 76 606T53 622T11 627V660H322V627H280Q262 627 256 616T263 577L386 317H388L504 568Q514 589 512 601T502 620T481 627H443V660H647V627Q621 627 606 621T579 601T556 563L404 265V90Q404 65 409 53T432 37T485 33V0H178Z"></glyph>
      <glyph unicode="Z" d="M20 0V33L384 625H259Q201 625 167 612T115 567T90 484H55V660H561L560 628L194 35H331Q382 35 416 41T473 63T512 109T541 187H576L564 0H20Z"></glyph>
      <glyph unicode="[" d="M100 -130V660H296V628H209V-97H296V-130H100Z"></glyph>
      <glyph unicode="\" d="M267 -12L6 671H101L362 -12H267Z"></glyph>
      <glyph unicode="]" d="M21 -130V-97H108V628H21V660H217V-130H21Z"></glyph>
      <glyph unicode="^" d="M68 308L240 660H322L494 308H406L281 572L154 308H68Z"></glyph>
      <glyph unicode="_" d="M40 -117V-70H507V-117H40Z"></glyph>
      <glyph unicode="`" d="M474 545L370 658Q354 677 350 686T346 706Q346 724 360 737T393 750Q409 750 422 742T446 714L524 545H474Z"></glyph>
      <glyph unicode="a" d="M407 -11Q375 -11 354 -2T323 23T313 59V355Q313 397 297 418T238 440Q223 440 210 437T188 428T180 414Q180 405 186 398T199 383T205 357Q205 332 187 313T136 294Q103 294 85 313T67 356Q67 385 89 413T161 461T289 480Q375 480 414 442T454 320V100Q454 63 461 52T482 40Q494 40 501 43T516 50L527 21Q502 5 473 -3T407 -11ZM175 -11Q109 -11 73 16T37 95Q37 145 77 183T189 247T357 287V249Q263 231 221 200T178 118Q178 81 194 65T242 49Q264 49 283 59T319 83T345 107L356 74Q337 55 312 35T254 2T175 -11Z"></glyph>
      <glyph unicode="b" d="M316 -12Q282 -12 255 -6T204 11T156 33L179 126Q189 111 201 93T229 60T264 34T307 24Q360 24 385 71T410 228Q410 322 386 373T309 425Q286 425 267 413T233 386T204 357L207 411Q226 431 248 446T300 471T368 481Q457 481 508 422T559 247Q559 161 530 104T446 17T316 -12ZM85 0V592Q85 617 79 624T51 632H23V666L182 690H226V30H162L133 0H85ZM204 418V431H237V418H204Z"></glyph>
      <glyph unicode="c" d="M265 -11Q193 -11 142 16T63 96T36 229Q36 292 53 339T101 418T177 465T277 481Q337 481 377 464T437 419T457 358Q457 327 441 308T389 289Q359 289 342 304T324 348Q324 363 327 372T335 389T339 406Q339 422 325 433T280 445Q251 445 230 430T197 375T186 260Q186 182 198 137T237 71T306 51Q345 51 370 64T410 99T436 144L468 128Q458 102 444 77T407 32T350 1T265 -11Z"></glyph>
      <glyph unicode="d" d="M226 -11Q136 -11 86 51T35 224Q35 310 64 367T147 452T277 481Q305 481 325 478T362 468T396 456V389Q384 401 369 414T333 436T289 445Q234 445 208 397T182 252Q182 148 209 97T285 46Q308 46 325 56T356 82T386 111L391 61Q368 38 342 22T287 -2T226 -11ZM378 0L367 74V595Q367 617 361 624T339 632H305V665L465 690H507V83Q507 50 516 42T548 33H571V0H378ZM359 453V468H394V453H359Z"></glyph>
      <glyph unicode="e" d="M261 -11Q151 -11 94 50T36 234Q36 317 62 372T139 454T264 481Q322 481 364 465T432 417T471 341T484 240V231H121V267H335Q335 328 330 367T309 425T263 445Q238 445 221 429T194 373T185 262Q185 207 191 168T210 102T247 64T305 51Q340 51 365 62T409 95T440 144L474 126Q461 95 438 63T374 10T261 -11Z"></glyph>
      <glyph unicode="f" d="M27 0V33Q56 33 69 36T87 51T91 83V434H27V470H91V523Q91 577 114 618T181 681T283 704Q346 704 385 677T424 603Q424 575 409 557T362 539Q332 539 316 555T299 597Q299 613 304 621T315 636T320 652Q320 663 312 669T289 676Q268 676 256 662T238 625T233 571V470H330V434H233V83Q233 61 238 51T262 37T317 33V0H27Z"></glyph>
      <glyph unicode="g" d="M237 -212Q174 -212 125 -200T49 -161T21 -94Q21 -52 53 -23T155 23L238 16Q195 12 170 -3T135 -40T124 -85Q124 -127 157 -153T260 -180Q302 -180 335 -170T388 -138T407 -85Q407 -43 372 -26T265 -9H164Q139 -9 116 3T78 37T64 84Q64 128 103 158T203 206L224 189Q214 187 202 182T177 171T156 156T148 138Q148 128 161 118T214 108H317Q409 108 453 71T497 -36Q497 -95 466 -134T376 -192T237 -212ZM245 166Q186 166 139 182T65 233T37 320Q37 362 53 392T99 441T167 470T247 480Q306 480 353 463T429 410T457 321Q457 267 428 233T351 182T245 166ZM247 198Q282 198 299 227T317 327Q317 370 311 397T290 436T250 448Q211 448 196 419T181 321Q181 255 195 227T247 198ZM514 376Q495 376 485 385T475 407Q475 416 477 421T479 430Q479 433 475 436T462 440Q452 440 439 433T413 400L393 427Q409 456 433 468T486 481Q520 481 539 466T558 423Q558 403 548 390T514 376Z"></glyph>
      <glyph unicode="h" d="M341 0V33Q365 33 376 36T390 50T393 78V318Q393 355 385 377T360 410T319 420Q292 420 270 406T220 361L216 398Q235 418 259 437T315 468T390 481Q457 481 496 444T535 324V83Q535 62 539 52T556 37T596 33V0H341ZM23 0V33Q51 33 64 36T82 51T87 83V594Q87 616 82 624T58 632H25V665L185 690H228V81Q228 61 232 51T247 37T283 33V0H23ZM199 405V413H234V405H199Z"></glyph>
      <glyph unicode="i" d="M24 0V33Q53 33 66 37T84 51T88 83V379Q88 402 83 409T60 417H27V450L186 475H230V83Q230 62 234 52T250 37T288 33V0H24ZM155 531Q122 531 98 554T73 610Q73 644 97 667T155 690Q178 690 196 679T226 650T237 610Q237 577 213 554T155 531Z"></glyph>
      <glyph unicode="j" d="M20 -212Q-11 -212 -39 -203T-86 -174T-104 -125Q-104 -98 -87 -80T-44 -61Q-22 -61 -3 -73T17 -113Q17 -127 12 -134T3 -147T-2 -162Q-2 -172 7 -176T22 -181Q38 -181 45 -173T55 -141T57 -74V379Q57 402 52 409T28 417H-5V450L154 475H199V21Q199 -48 180 -100T121 -182T20 -212ZM124 530Q90 530 66 553T41 609Q41 643 65 666T124 689Q146 689 164 679T194 650T206 610Q206 576 182 553T124 530Z"></glyph>
      <glyph unicode="k" d="M23 0V33Q51 33 65 37T83 51T87 83V593Q87 616 82 624T58 632H25V665L186 690H229V83Q229 62 232 52T246 37T283 33V0H23ZM330 0V33H344Q353 33 357 35T362 43Q362 48 356 58T341 81L237 238L327 333L478 122Q500 91 516 72T546 43T571 33H581V0H330ZM139 113V157L346 368Q380 403 380 420T360 438H335V471L542 470V437H534Q490 437 455 413T377 346L139 113Z"></glyph>
      <glyph unicode="l" d="M23 0V33Q51 33 65 37T83 52T87 83V593Q87 616 82 624T58 632H25V665L186 690H229V83Q229 62 233 52T249 37T287 33V0H23Z"></glyph>
      <glyph unicode="m" d="M645 0V33Q668 33 679 36T693 49T697 78V318Q697 354 688 376T662 409T622 420Q600 420 583 411T553 386T531 345L511 373Q535 425 579 453T688 481Q758 481 798 444T839 324V83Q839 62 843 52T860 37T900 33V0H645ZM25 0V33Q54 33 67 36T85 51T89 83V379Q89 401 84 409T60 417H27V450L184 475H227V411H231V81Q231 60 235 50T251 36T286 33V0H25ZM342 0V33Q365 33 375 36T390 49T394 78V318Q394 355 386 377T361 410T319 420Q301 420 285 414T254 395T220 361L216 398Q237 420 262 438T319 469T390 481Q439 481 471 464T519 418T535 358V83Q535 62 538 52T553 37T589 33V0H342Z"></glyph>
      <glyph unicode="n" d="M344 0V33Q367 33 378 36T392 49T396 78V318Q396 355 388 377T363 410T323 420Q293 420 271 405T222 364L219 398Q239 419 264 438T320 469T393 481Q459 481 498 444T537 324V83Q537 62 541 52T559 37T599 33V0H344ZM25 0V33Q54 33 67 36T85 51T89 83V379Q89 401 84 409T60 417H27V450L184 475H227V409H231V81Q231 60 235 50T251 36T286 33V0H25Z"></glyph>
      <glyph unicode="o" d="M283 -11Q157 -11 96 49T35 234Q35 360 97 421T285 482Q410 482 470 422T531 236Q531 110 471 50T283 -11ZM284 24Q337 24 360 76T381 236Q380 345 358 395T282 446Q229 446 207 392T184 233Q184 124 207 74T284 24Z"></glyph>
      <glyph unicode="p" d="M23 -200V-167Q52 -167 65 -164T83 -150T87 -117V383Q87 404 81 410T53 417H24V451L181 475H224V422H228V-117Q228 -138 232 -148T250 -163T293 -167V-200H23ZM319 -12Q292 -12 270 -8T228 5T186 23V123Q196 109 208 92T235 59T268 34T310 24Q365 24 390 72T415 229Q415 322 391 373T314 425Q289 425 269 413T235 385T214 362V411Q233 432 255 447T307 472T372 481Q462 481 513 422T564 248Q564 163 535 106T451 18T319 -12Z"></glyph>
      <glyph unicode="q" d="M226 -11Q136 -11 86 51T35 224Q35 307 64 364T147 451T279 481Q322 481 349 472T397 449T438 422L414 361Q402 379 384 398T343 431T288 445Q233 445 208 395T182 250Q182 149 209 98T285 46Q308 46 326 56T359 82T388 112L389 61Q367 38 342 22T288 -3T226 -11ZM364 42V55H397V42H364ZM304 -200V-167Q334 -167 348 -164T366 -149T371 -117V416L471 475H513V-117Q513 -138 518 -148T536 -163T577 -167V-200H304Z"></glyph>
      <glyph unicode="r" d="M25 0V33Q54 33 67 37T85 51T89 83V379Q89 401 84 409T60 417H27V450L184 475H227V383H231V83Q231 62 236 52T258 37T308 33V0H25ZM211 270V334Q215 347 224 370T251 419T293 462T355 480Q397 480 420 456T443 393Q443 363 427 340T372 316Q342 316 324 331T305 376Q305 391 309 399T318 411T323 420Q323 423 320 425T311 428Q299 428 285 414T259 376T239 325T231 271L211 270Z"></glyph>
      <glyph unicode="s" d="M225 -12Q188 -12 166 -6T129 7T99 13Q88 13 82 9T72 -1H48L39 162H71Q83 98 123 61T219 24Q255 24 281 41T308 97Q308 117 300 129T274 152T227 174L173 189Q103 214 73 247T43 330Q43 400 91 440T223 481Q256 481 275 476T308 466T334 461Q346 461 350 467T356 479H381L388 333H359Q349 368 331 393T289 432T232 446Q195 446 173 429T151 385Q151 365 163 352T194 330T231 314L277 300Q325 285 355 265T401 217T416 151Q416 104 394 67T329 9T225 -12Z"></glyph>
      <glyph unicode="t" d="M202 -12Q161 -12 131 2T86 49T70 135V434H10V467Q50 475 84 500T142 564T179 647H212V470H310V434H212V141Q212 95 224 72T269 48Q287 48 302 55T324 67L341 39Q328 30 310 18T266 -3T202 -12Z"></glyph>
      <glyph unicode="u" d="M227 -12Q160 -12 122 25T84 143V381Q84 404 78 411T54 419H21V452L181 475H225V155Q225 117 233 94T259 61T299 50Q318 50 334 57T366 78T398 108L402 75Q389 60 366 40T309 4T227 -12ZM394 0V64H390V381Q390 404 385 411T361 419H328V452L487 475H531V72Q531 55 535 47T553 36T592 33V0H394Z"></glyph>
      <glyph unicode="v" d="M217 0L55 400Q46 422 35 429T-4 437V470H252V437H214Q200 437 196 430T197 410L302 140H305L409 408Q414 420 410 428T392 437H354V470H516V437Q490 437 478 429T455 396L289 0H217Z"></glyph>
      <glyph unicode="w" d="M179 0L49 400Q42 423 31 430T-4 437V470H240V437H212Q199 437 194 430T194 402L261 161H263L362 467H455L552 163H554L621 404Q627 424 620 430T598 437H572V470H731V437Q712 437 701 433T682 419T671 396L544 0H477L365 325H360L247 0H179Z"></glyph>
      <glyph unicode="x" d="M273 0V33H295Q312 33 314 42T308 66L86 406Q74 424 61 430T17 437V470H276V437H258Q244 437 240 429T248 402L467 77Q483 53 499 43T544 33V0H273ZM10 0V33Q39 33 61 42T103 77L217 222L236 188L154 70Q144 56 148 45T168 33H190V0H10ZM315 261L294 292L374 411Q382 424 379 430T366 437H342V470H503V437Q483 437 468 434T441 424T421 405L315 261Z"></glyph>
      <glyph unicode="y" d="M114 -211Q87 -211 64 -200T28 -168T14 -122Q14 -95 32 -75T80 -54Q108 -54 124 -71T141 -114Q141 -127 137 -134T129 -146T124 -158Q124 -165 129 -169T142 -173Q160 -173 177 -151T214 -77L399 407Q404 421 399 429T381 437H348V470H507V437Q491 437 480 434T460 419T440 382L289 12Q271 -31 256 -71T222 -143T178 -193T114 -211ZM244 -42L63 396Q56 415 49 423T30 434T-6 437V470H260V437H229Q217 437 212 429T212 402L302 160H328L244 -42Z"></glyph>
      <glyph unicode="z" d="M22 0V56L287 439H207Q171 439 143 430T97 396T70 325H40L51 470H435V427L170 32H259Q313 32 343 43T390 83T420 165H450L439 0H22Z"></glyph>
      <glyph unicode="{" d="M244 -130Q204 -130 178 -120T137 -91T115 -50T109 -3V178Q109 216 92 233T40 251V283Q76 283 92 299T109 348V533Q109 560 116 583T138 623T179 650T241 660H286V627Q256 627 242 617T225 591T221 554V372Q221 350 217 331T195 296T131 269V264Q175 254 194 240T217 207T221 166V-21Q221 -45 225 -62T243 -88T286 -97V-130H244Z"></glyph>
      <glyph unicode="|" d="M91 -198V729H175V-198H91Z"></glyph>
      <glyph unicode="}" d="M30 -130V-97Q59 -97 73 -88T91 -62T96 -21V166Q96 189 100 207T123 239T186 264V269Q141 280 122 295T100 330T96 372V554Q96 574 92 590T74 617T30 627V660H75Q112 660 137 651T177 624T200 583T208 533V348Q208 316 224 300T276 283V251Q243 251 226 234T208 178V-3Q208 -27 202 -49T180 -90T138 -119T72 -130H30Z"></glyph>
      <glyph unicode="~" d="M77 159L44 227Q58 256 86 281T159 307Q184 307 212 297T265 275Q291 264 315 253T357 242Q385 242 404 264T439 310L472 242Q454 214 428 189T356 163Q331 163 306 172T256 194Q232 207 207 217T156 228Q136 228 121 217T96 190T77 159Z"></glyph>
      <glyph unicode=" "></glyph>
      <glyph unicode="¡" d="M160 -199Q132 -199 115 -189T91 -160T83 -121Q83 -115 83 -108T84 -93T86 -76L136 272H184L234 -76Q236 -90 237 -101T238 -122Q238 -143 231 -160T206 -188T160 -199ZM160 324Q127 324 104 347T81 404Q81 438 104 460T159 482Q193 482 215 460T238 404Q238 372 216 348T160 324Z"></glyph>
      <glyph unicode="¢" d="M294 78Q244 78 198 92T116 134T59 207T38 310Q38 374 57 422T110 501T192 548T297 564Q366 564 408 547T469 502T489 445Q489 412 470 397T419 381Q391 381 373 398T354 444Q354 461 359 469T364 488Q364 501 352 513T296 526Q257 526 235 502T203 435T193 340Q193 276 204 231T242 162T313 138Q361 138 390 153T436 188T460 224L493 209Q489 194 477 172T441 129T382 93T294 78ZM272 0V660H325V0H272Z"></glyph>
      <glyph unicode="£" d="M61 0V59Q106 85 131 110T166 163T171 228T151 314L124 399Q99 480 111 541T173 637T311 672Q393 672 442 642T491 563Q491 532 472 511T421 489Q391 489 372 508T352 553Q352 567 357 577T367 596T372 612Q372 621 357 630T308 640Q257 640 237 616T220 546T241 441L268 348Q287 285 286 240T265 161T213 100V98H415Q436 98 454 103T482 129L494 156H527L488 0H61ZM42 322V368H403V322H42Z"></glyph>
      <glyph unicode="¤" d="M79 91L27 143L80 196Q58 224 47 258T35 330Q35 368 46 402T80 464L27 516L79 569L131 517Q159 538 193 549T266 561Q303 561 338 549T401 516L453 569L505 516L452 464Q473 436 484 402T496 330Q496 292 485 258T452 196L505 143L453 91L401 144Q373 123 338 111T266 99Q228 99 194 111T131 143L79 91ZM266 188Q303 188 333 207T382 259T401 330Q401 369 383 401T334 453T266 472Q229 472 198 453T149 402T131 330Q131 291 149 259T198 208T266 188Z"></glyph>
      <glyph unicode="¥" d="M164 0V33Q198 33 213 37T232 53T237 90V289L88 577Q79 595 71 606T49 622T11 627V660H283V627H242Q221 627 217 616T225 577L338 351H341L444 568Q454 589 453 602T442 621T420 627H385V660H580V627Q546 627 531 613T497 563L359 288V90Q359 65 364 53T385 37T434 33V0H164ZM97 174V223H501V174H97ZM97 297V347H501V297H97Z"></glyph>
      <glyph unicode="¦" d="M91 381V613H175V381H91ZM91 -83V149H175V-83H91Z"></glyph>
      <glyph unicode="§" d="M421 82L401 116Q418 127 429 142T440 182Q440 212 425 236T383 281T317 324L260 356Q218 379 188 403T141 456T124 524Q124 552 133 578T163 624T217 657T302 670Q384 670 422 640T461 564Q461 537 448 522T405 507Q378 507 364 520T350 558Q350 573 355 580T365 593T370 606Q370 619 353 630T299 641Q254 641 235 623T216 575Q216 555 225 538T256 504T317 464L367 435Q420 406 453 379T503 319T519 243Q519 204 507 175T473 123T421 82ZM263 -109Q182 -109 140 -79T98 -3Q98 23 111 38T153 53Q181 53 194 39T208 0Q208 -15 203 -22T194 -34T189 -46Q189 -55 199 -63T226 -75T266 -80Q310 -80 331 -63T352 -12Q352 13 340 33T302 71T240 111L188 140Q139 168 107 195T60 253T44 326Q44 366 57 395T93 446T149 485L168 453Q149 442 136 426T123 384Q123 356 139 333T184 288T252 244L302 216Q350 190 381 165T429 111T445 41Q445 -3 426 -37T366 -90T263 -109Z"></glyph>
      <glyph unicode="¨" d="M542 554Q514 554 495 574T475 621Q475 649 495 669T542 689Q570 689 589 669T609 621Q609 594 590 574T542 554ZM348 554Q320 554 300 574T280 621Q280 649 299 669T347 689Q375 689 395 669T415 621Q415 594 396 574T348 554Z"></glyph>
      <glyph unicode="©" d="M376 -17Q304 -17 242 9T132 83T57 193T30 327Q30 398 57 460T132 569T242 642T376 669Q447 669 510 643T620 569T695 460T722 327Q722 256 695 194T621 84T510 10T376 -17ZM384 128Q324 128 281 152T214 222T190 329Q190 390 216 435T287 504T386 528Q430 528 453 517T490 506Q497 506 499 509T502 514L505 521H520L526 396H495Q492 422 481 443T449 477T398 490Q365 490 345 476T313 439T296 388T291 329Q291 293 299 257T332 195T403 170Q434 170 457 180T495 204T516 232L538 219Q529 198 510 177T460 142T384 128ZM377 47Q432 47 479 68T563 127T620 217T641 327Q641 386 621 437T564 526T480 586T377 607Q322 607 274 586T189 527T132 437T111 327Q111 268 132 217T189 128T273 68T377 47Z"></glyph>
      <glyph unicode="ª" d="M268 370Q242 370 224 380T206 426V593Q206 622 197 634T162 646Q134 646 124 640T114 627Q114 620 123 613T132 588Q132 572 120 561T89 549Q69 549 57 560T45 591Q45 621 80 645T190 670Q245 670 273 652T302 587V447Q302 422 307 414T325 405Q331 405 335 407T343 410L349 390Q330 380 312 375T268 370ZM113 370Q92 370 72 375T38 395T24 435Q24 487 78 515T231 556V528Q179 517 150 500T121 453Q121 410 162 410Q191 410 206 424T231 448V417Q211 402 185 386T113 370Z"></glyph>
      <glyph unicode="«" d="M460 29L260 243L461 458H491L408 243L491 29H460ZM233 29L32 243L234 458H263L180 243L263 29H233Z"></glyph>
      <glyph unicode="¬" d="M410 94V291H26V376H495V94H410Z"></glyph>
      <glyph unicode="®" d="M238 255Q181 255 134 283T58 358T30 462Q30 519 58 565T133 640T239 668Q296 668 343 640T419 566T447 462Q447 405 419 358T344 283T238 255ZM240 293Q283 293 319 315T377 376T399 462Q399 510 377 548T319 608T239 631Q195 631 159 609T101 548T79 462Q79 414 100 376T158 316T240 293ZM137 353V368Q154 368 159 371T165 386V541Q165 554 160 557T137 560V574H255Q298 574 313 558T329 521Q329 497 313 483T274 465V464Q298 458 305 447T317 415L322 391Q325 379 335 374T351 368V353H286Q282 358 277 367T270 387L262 426Q258 440 250 446T229 453H217V386Q217 376 222 372T244 368V353H137ZM217 470H230Q254 470 264 482T275 515Q275 540 262 549T232 558Q222 558 220 556T217 545V470Z"></glyph>
      <glyph unicode="¯" d="M308 572V651H595V572H308Z"></glyph>
      <glyph unicode="°" d="M167 404Q130 404 100 421T51 469T33 537Q33 575 51 604T99 651T167 669Q204 669 234 652T283 604T302 537Q301 500 283 470T234 422T167 404ZM167 451Q204 451 227 477T251 537Q251 569 228 595T167 622Q130 622 108 596T85 537Q85 504 107 478T167 451Z"></glyph>
      <glyph unicode="±" d="M219 136V260H30V345H219V469H304V345H495V260H304V136H219ZM30 0V85H495V0H30Z"></glyph>
      <glyph unicode="²" d="M27 268V275Q27 303 36 325T62 366T97 400T136 431Q162 450 184 470T219 514T232 571Q232 604 218 622T176 641Q163 641 154 637T145 623Q145 613 150 606T155 582Q155 562 141 547T101 531Q77 531 63 546T48 586Q48 616 68 635T124 662T199 671Q241 671 275 661T329 629T350 568Q350 522 317 493T212 429Q163 405 135 385T92 343H281Q303 343 314 352T332 383H355L332 268H27Z"></glyph>
      <glyph unicode="³" d="M157 262Q86 262 55 283T23 337Q23 362 39 376T78 391Q101 391 114 379T128 346Q128 332 123 326T118 313Q118 305 127 299T154 293Q186 293 203 315T221 382Q221 424 205 446T154 469Q147 469 135 468T107 465V500Q119 499 130 499T148 498Q173 498 185 510T202 541T207 576Q207 607 197 623T160 640Q143 640 135 635T127 620Q127 614 130 610T135 601T138 586Q138 569 126 556T88 543Q63 543 48 557T33 593Q33 617 51 634T100 661T170 671Q198 671 225 665T273 648T308 619T321 577Q321 544 294 518T211 486V485Q228 484 249 478T291 459T324 426T337 377Q337 323 288 293T157 262Z"></glyph>
      <glyph unicode="´" d="M366 553L444 722Q454 742 467 750T497 758Q516 758 530 745T544 714Q544 704 540 695T520 666L416 553H366Z"></glyph>
      <glyph unicode="µ" d="M227 -12Q160 -12 122 25T84 143V381Q84 404 78 411T54 419H21V452L180 475H225V155Q225 117 233 94T259 61T299 50Q317 50 333 57T365 78T398 108L401 75Q389 60 366 40T309 4T227 -12ZM116 -212Q88 -212 75 -195T61 -150Q61 -124 67 -95T78 -27T84 66V278H148V3Q148 -34 154 -62T165 -111T171 -150Q171 -178 157 -195T116 -212ZM394 0V64H389V381Q389 404 384 411T360 419H327V452L487 475H531V72Q531 55 535 47T552 36T592 33V0H394Z"></glyph>
      <glyph unicode="¶" d="M168 -130V245Q101 265 62 318T23 446Q23 548 82 604T237 660H261V-130H168ZM325 -130V660H504V628H446Q425 628 421 617T417 584V-130H325Z"></glyph>
      <glyph unicode="·" d="M144 188Q112 188 90 210T68 264Q68 297 90 319T144 341Q176 341 198 319T221 264Q221 232 199 210T144 188Z"></glyph>
      <glyph unicode="¸" d="M437 -203Q417 -203 393 -200T347 -187L364 -150Q376 -155 390 -159T419 -164Q436 -164 453 -156T470 -126Q470 -110 460 -101T432 -92Q425 -92 420 -94T410 -99L393 -91L437 1H479L452 -57Q457 -55 468 -54T489 -52Q519 -52 544 -68T569 -120Q569 -152 548 -170T496 -195T437 -203Z"></glyph>
      <glyph unicode="¹" d="M71 268V296H120Q127 296 129 298T132 313V590Q108 581 85 573T43 559V595Q63 602 83 613T124 637T162 664H238V313Q238 300 241 298T253 296H303V268H71Z"></glyph>
      <glyph unicode="º" d="M185 369Q109 369 66 409T23 519Q23 587 68 628T186 669Q262 669 305 629T348 520Q348 448 303 409T185 369ZM186 393Q218 393 230 424T242 517Q241 579 229 612T185 645Q153 645 141 614T129 523Q129 458 141 426T186 393Z"></glyph>
      <glyph unicode="»" d="M267 29L349 243L267 458H296L497 243L297 29H267ZM39 29L122 243L39 458H69L270 243L69 29H39Z"></glyph>
      <glyph unicode="¼" d="M71 268V296H120Q127 296 129 300T132 317V590Q108 580 85 572T43 559V595Q63 601 83 612T124 637T162 664H238V317Q238 305 241 301T253 296H303V268H71ZM186 -12L555 672H609L240 -12H186ZM601 0V28H637Q642 28 646 31T651 47V98H476V143Q511 192 548 241T619 332T678 401H756V163H822V98H756V47Q756 35 760 32T772 28H807V0H601ZM533 163H651V311H649Q628 285 607 259T566 208T533 163Z"></glyph>
      <glyph unicode="½" d="M71 268V296H120Q127 296 129 300T132 317V590Q108 580 85 572T43 559V595Q63 601 83 612T124 637T162 664H238V317Q238 305 241 301T253 296H303V268H71ZM186 -12L555 672H609L240 -12H186ZM486 0V6Q486 35 495 57T521 98T556 132T595 162Q621 182 643 201T678 246T691 303Q691 335 677 353T635 372Q622 372 613 368T604 355Q604 345 609 338T614 313Q614 294 600 279T560 263Q536 263 522 278T507 317Q507 348 527 366T583 394T658 403Q700 403 734 393T788 361T809 299Q809 254 776 225T671 161Q622 137 594 116T551 75H740Q762 75 773 84T791 115H814L791 0H486Z"></glyph>
      <glyph unicode="¾" d="M157 262Q86 262 55 283T23 337Q23 361 39 376T78 391Q101 391 114 379T128 346Q128 332 123 326T118 313Q118 305 127 299T154 293Q186 293 203 314T221 382Q221 424 205 446T154 469Q147 469 135 468T107 465V500Q119 499 130 499T148 498Q173 498 185 510T202 541T207 576Q207 606 197 623T160 640Q143 640 135 635T127 620Q127 614 130 610T135 601T138 586Q138 568 126 556T88 543Q63 543 48 557T33 593Q33 617 51 634T100 660T170 670Q198 670 225 665T273 647T308 618T321 577Q321 544 294 518T211 486V484Q228 483 249 477T291 459T324 426T337 377Q337 323 288 293T157 262ZM230 -12L599 672H653L284 -12H230ZM645 0V28H681Q686 28 690 31T695 47V98H520V143Q555 192 592 241T663 332T722 401H800V163H866V98H800V47Q800 35 804 32T816 28H851V0H645ZM577 163H695V311H693Q672 285 651 259T610 208T577 163Z"></glyph>
      <glyph unicode="¿" d="M254 -199Q221 -199 187 -193T124 -170T77 -128T59 -61Q59 -24 75 3T115 51T167 91T219 130T260 178T276 243V271H316V243Q316 190 305 155T278 95T245 47T217 -4T206 -73Q206 -109 214 -130T238 -162T272 -172Q289 -172 303 -166T327 -149T336 -125Q336 -112 330 -105T316 -88T309 -59Q309 -29 329 -10T384 9Q421 9 441 -14T461 -72Q461 -108 442 -132T391 -171T324 -192T254 -199ZM291 329Q261 329 238 351T215 405Q215 437 238 459T292 482Q323 482 346 460T369 406Q369 375 346 352T291 329Z"></glyph>
      <glyph unicode="À" d="M7 0V33Q35 33 51 37T76 53T95 88L315 660H411L619 83Q627 61 634 51T656 37T696 33V0H396V33H444Q464 33 469 44T467 75L308 518H305L148 72Q142 52 147 43T173 33H215V0H7ZM190 234L196 271H417L422 234H190ZM396 735L292 848Q276 867 272 876T268 896Q268 914 282 927T315 940Q331 940 344 932T368 904L446 735H396Z"></glyph>
      <glyph unicode="Á" d="M7 0V33Q35 33 51 37T76 53T95 88L315 660H411L619 83Q627 61 634 51T656 37T696 33V0H396V33H444Q464 33 469 44T467 75L308 518H305L148 72Q142 52 147 43T173 33H215V0H7ZM190 234L196 271H417L422 234H190ZM268 743L346 912Q356 932 369 940T399 948Q418 948 432 935T446 904Q446 894 442 885T422 856L318 743H268Z"></glyph>
      <glyph unicode="Â" d="M7 0V33Q35 33 51 37T76 53T95 88L315 660H411L619 83Q627 61 634 51T656 37T696 33V0H396V33H444Q464 33 469 44T467 75L308 518H305L148 72Q142 52 147 43T173 33H215V0H7ZM190 234L196 271H417L422 234H190ZM200 730L312 903H403L513 730H463L355 823L250 730H200Z"></glyph>
      <glyph unicode="Ã" d="M7 0V33Q35 33 51 37T76 53T95 88L315 660H411L619 83Q627 61 634 51T656 37T696 33V0H396V33H444Q464 33 469 44T467 75L308 518H305L148 72Q142 52 147 43T173 33H215V0H7ZM190 234L196 271H417L422 234H190ZM418 741Q389 741 365 752T319 775T271 786Q247 786 235 774T218 745H186Q191 775 203 803T238 851T296 871Q326 871 349 860T396 837T446 825Q470 825 480 836T494 866H527Q523 838 511 809T476 761T418 741Z"></glyph>
      <glyph unicode="Ä" d="M7 0V33Q35 33 51 37T76 53T95 88L315 660H411L619 83Q627 61 634 51T656 37T696 33V0H396V33H444Q464 33 469 44T467 75L308 518H305L148 72Q142 52 147 43T173 33H215V0H7ZM190 234L196 271H417L422 234H190ZM454 744Q426 744 407 764T387 811Q387 839 407 859T454 879Q482 879 501 859T521 811Q521 784 502 764T454 744ZM260 744Q232 744 212 764T192 811Q192 839 211 859T259 879Q287 879 307 859T327 811Q327 784 308 764T260 744Z"></glyph>
      <glyph unicode="Å" d="M7 0V33Q35 33 51 37T76 53T95 88L315 660H411L619 83Q627 61 634 51T656 37T696 33V0H396V33H444Q464 33 469 44T467 75L308 518H305L148 72Q142 52 147 43T173 33H215V0H7ZM190 234L196 271H417L422 234H190ZM356 709Q314 709 285 738T255 810Q255 853 284 882T356 911Q399 911 428 882T458 810Q458 768 429 739T356 709ZM356 758Q378 758 393 773T408 810Q408 833 393 848T356 863Q335 863 320 848T305 810Q305 788 320 773T356 758Z"></glyph>
      <glyph unicode="Æ" d="M7 0V33Q36 33 52 37T79 52T101 86L353 569Q367 596 362 611T335 627H283V660H858V499H823Q811 548 795 575T750 612T674 622H614Q592 622 584 615T576 588V366H675Q705 366 721 373T744 400T756 455H786V235H756Q752 271 745 290T721 317T675 325H576V107Q576 77 583 62T611 43T679 38Q730 38 763 49T816 91T850 178H884L872 0H353V33Q386 33 401 37T421 53T426 89V599H421L152 72Q142 50 148 42T175 33H227V0H7ZM260 321L269 362H433V321H260Z"></glyph>
      <glyph unicode="Ç" d="M378 -12Q273 -12 197 26T80 139T39 323Q39 435 80 512T199 631T384 672Q437 672 470 663T524 645T557 635Q567 635 573 639T583 650L587 660H614L624 471H592Q585 506 571 535T533 588T477 623T404 636Q351 636 316 615T258 560T223 484T207 402T203 330Q203 266 214 210T249 113T311 48T403 24Q447 24 480 36T538 70T579 118T604 171L633 158Q623 128 605 98T556 42T482 3T378 -12ZM321 -203Q301 -203 277 -200T231 -187L248 -150Q260 -155 274 -159T303 -164Q320 -164 337 -156T354 -126Q354 -110 344 -101T316 -92Q309 -92 304 -94T294 -99L277 -91L321 1H363L336 -57Q341 -55 352 -54T373 -52Q403 -52 428 -68T453 -120Q453 -152 432 -170T380 -195T321 -203Z"></glyph>
      <glyph unicode="È" d="M37 0V33Q71 33 86 37T105 53T110 89V570Q110 595 106 607T86 623T37 627V660H556V499H521Q509 548 493 575T448 612T372 622H300Q278 622 270 615T262 588V367H373Q403 367 419 374T442 401T455 456H484V234H455Q450 270 443 289T419 316T373 323H262V104Q262 76 268 62T297 43T371 38Q423 38 457 50T514 92T548 178H582L570 0H37ZM354 735L250 848Q234 867 230 876T226 896Q226 914 240 927T273 940Q289 940 302 932T326 904L404 735H354Z"></glyph>
      <glyph unicode="É" d="M37 0V33Q71 33 86 37T105 53T110 89V570Q110 595 106 607T86 623T37 627V660H556V499H521Q509 548 493 575T448 612T372 622H300Q278 622 270 615T262 588V367H373Q403 367 419 374T442 401T455 456H484V234H455Q450 270 443 289T419 316T373 323H262V104Q262 76 268 62T297 43T371 38Q423 38 457 50T514 92T548 178H582L570 0H37ZM226 743L304 912Q314 932 327 940T357 948Q376 948 390 935T404 904Q404 894 400 885T380 856L276 743H226Z"></glyph>
      <glyph unicode="Ê" d="M37 0V33Q71 33 86 37T105 53T110 89V570Q110 595 106 607T86 623T37 627V660H556V499H521Q509 548 493 575T448 612T372 622H300Q278 622 270 615T262 588V367H373Q403 367 419 374T442 401T455 456H484V234H455Q450 270 443 289T419 316T373 323H262V104Q262 76 268 62T297 43T371 38Q423 38 457 50T514 92T548 178H582L570 0H37ZM158 730L270 903H361L471 730H421L313 823L208 730H158Z"></glyph>
      <glyph unicode="Ë" d="M37 0V33Q71 33 86 37T105 53T110 89V570Q110 595 106 607T86 623T37 627V660H556V499H521Q509 548 493 575T448 612T372 622H300Q278 622 270 615T262 588V367H373Q403 367 419 374T442 401T455 456H484V234H455Q450 270 443 289T419 316T373 323H262V104Q262 76 268 62T297 43T371 38Q423 38 457 50T514 92T548 178H582L570 0H37ZM412 744Q384 744 365 764T345 811Q345 839 365 859T412 879Q440 879 459 859T479 811Q479 784 460 764T412 744ZM218 744Q190 744 170 764T150 811Q150 839 169 859T217 879Q245 879 265 859T285 811Q285 784 266 764T218 744Z"></glyph>
      <glyph unicode="Ì" d="M37 0V33Q72 33 87 37T106 53T110 89V569Q110 594 106 606T86 623T37 627V660H334V627Q302 627 287 623T267 607T262 569V89Q262 64 267 52T287 37T334 33V0H37ZM226 735L122 848Q106 867 102 876T98 896Q98 914 112 927T145 940Q161 940 174 932T198 904L276 735H226Z"></glyph>
      <glyph unicode="Í" d="M37 0V33Q72 33 87 37T106 53T110 89V569Q110 594 106 606T86 623T37 627V660H334V627Q302 627 287 623T267 607T262 569V89Q262 64 267 52T287 37T334 33V0H37ZM97 743L175 912Q185 932 198 940T228 948Q247 948 261 935T275 904Q275 894 271 885T251 856L147 743H97Z"></glyph>
      <glyph unicode="Î" d="M37 0V33Q72 33 87 37T106 53T110 89V569Q110 594 106 606T86 623T37 627V660H334V627Q302 627 287 623T267 607T262 569V89Q262 64 267 52T287 37T334 33V0H37ZM29 730L141 903H232L342 730H292L184 823L79 730H29Z"></glyph>
      <glyph unicode="Ï" d="M37 0V33Q72 33 87 37T106 53T110 89V569Q110 594 106 606T86 623T37 627V660H334V627Q302 627 287 623T267 607T262 569V89Q262 64 267 52T287 37T334 33V0H37ZM283 744Q255 744 236 764T216 811Q216 839 236 859T283 879Q311 879 330 859T350 811Q350 784 331 764T283 744ZM89 744Q61 744 41 764T21 811Q21 839 40 859T88 879Q116 879 136 859T156 811Q156 784 137 764T89 744Z"></glyph>
      <glyph unicode="Ð" d="M39 309V361H424V309H39ZM49 0V33Q87 33 103 37T124 53T128 89V570Q128 595 123 607T102 623T49 627V660H377Q547 659 636 583T726 339Q726 216 682 142T552 34T344 0H49ZM349 38Q404 38 444 56T510 110T549 202T562 336Q562 432 539 495T470 590T355 622Q328 622 312 620T288 610T280 585V96Q280 72 286 59T307 42T349 38Z"></glyph>
      <glyph unicode="Ñ" d="M507 -7L151 537H149V85Q149 57 159 45T199 33H233V0H33V33H59Q106 33 106 85V570Q106 595 102 607T82 623T32 627V660H251L561 181H564V579Q564 627 513 627H478V660H676V627H653Q607 627 607 579V-7H507ZM414 741Q385 741 361 752T315 775T267 786Q243 786 231 774T214 745H182Q187 775 199 803T234 851T292 871Q322 871 345 860T392 837T442 825Q466 825 476 836T490 866H523Q519 838 507 809T472 761T414 741Z"></glyph>
      <glyph unicode="Ò" d="M370 -11Q260 -11 187 30T77 147T39 331Q39 411 60 474T122 581T226 649T370 672Q451 672 513 649T617 582T679 474T700 331Q700 224 663 148T553 30T370 -11ZM370 25Q405 25 432 37T480 75T512 137T531 222T537 331Q537 406 527 463T496 558T444 616T370 636Q325 636 293 617T241 559T212 463T203 331Q203 271 209 223T227 137T259 75T306 38T370 25ZM409 735L305 848Q289 867 285 876T281 896Q281 914 295 927T328 940Q344 940 357 932T381 904L459 735H409Z"></glyph>
      <glyph unicode="Ó" d="M370 -11Q260 -11 187 30T77 147T39 331Q39 411 60 474T122 581T226 649T370 672Q451 672 513 649T617 582T679 474T700 331Q700 224 663 148T553 30T370 -11ZM370 25Q405 25 432 37T480 75T512 137T531 222T537 331Q537 406 527 463T496 558T444 616T370 636Q325 636 293 617T241 559T212 463T203 331Q203 271 209 223T227 137T259 75T306 38T370 25ZM281 743L359 912Q369 932 382 940T412 948Q431 948 445 935T459 904Q459 894 455 885T435 856L331 743H281Z"></glyph>
      <glyph unicode="Ô" d="M370 -11Q260 -11 187 30T77 147T39 331Q39 411 60 474T122 581T226 649T370 672Q451 672 513 649T617 582T679 474T700 331Q700 224 663 148T553 30T370 -11ZM370 25Q405 25 432 37T480 75T512 137T531 222T537 331Q537 406 527 463T496 558T444 616T370 636Q325 636 293 617T241 559T212 463T203 331Q203 271 209 223T227 137T259 75T306 38T370 25ZM213 730L325 903H416L526 730H476L368 823L263 730H213Z"></glyph>
      <glyph unicode="Õ" d="M370 -11Q260 -11 187 30T77 147T39 331Q39 411 60 474T122 581T226 649T370 672Q451 672 513 649T617 582T679 474T700 331Q700 224 663 148T553 30T370 -11ZM370 25Q405 25 432 37T480 75T512 137T531 222T537 331Q537 406 527 463T496 558T444 616T370 636Q325 636 293 617T241 559T212 463T203 331Q203 271 209 223T227 137T259 75T306 38T370 25ZM431 741Q402 741 378 752T332 775T284 786Q260 786 248 774T231 745H199Q204 775 216 803T251 851T309 871Q339 871 362 860T409 837T459 825Q483 825 493 836T507 866H540Q536 838 524 809T489 761T431 741Z"></glyph>
      <glyph unicode="Ö" d="M370 -11Q260 -11 187 30T77 147T39 331Q39 411 60 474T122 581T226 649T370 672Q451 672 513 649T617 582T679 474T700 331Q700 224 663 148T553 30T370 -11ZM370 25Q405 25 432 37T480 75T512 137T531 222T537 331Q537 406 527 463T496 558T444 616T370 636Q325 636 293 617T241 559T212 463T203 331Q203 271 209 223T227 137T259 75T306 38T370 25ZM467 744Q439 744 420 764T400 811Q400 839 420 859T467 879Q495 879 514 859T534 811Q534 784 515 764T467 744ZM273 744Q245 744 225 764T205 811Q205 839 224 859T272 879Q300 879 320 859T340 811Q340 784 321 764T273 744Z"></glyph>
      <glyph unicode="×" d="M101 23L41 82L194 236L41 390L101 450L254 295L408 450L467 390L314 236L467 82L408 23L254 177L101 23Z"></glyph>
      <glyph unicode="Ø" d="M51 -6L621 666H678L109 -6H51ZM370 -11Q260 -11 187 30T77 147T39 331Q39 411 60 474T122 581T226 649T370 672Q451 672 513 649T617 582T679 474T700 331Q700 224 663 148T553 30T370 -11ZM370 25Q405 25 432 37T480 75T512 137T531 222T537 331Q537 406 527 463T496 558T444 616T370 636Q325 636 293 617T241 559T212 463T203 331Q203 271 209 223T227 137T259 75T306 38T370 25Z"></glyph>
      <glyph unicode="Ù" d="M382 -12Q236 -12 171 44T105 224V570Q105 595 101 607T82 623T33 627V660H330V627Q297 627 282 624T262 608T257 570V219Q257 157 269 115T310 52T384 31Q430 31 458 51T500 114T513 219V570Q513 595 509 607T489 623T440 627V660H735V627Q701 627 686 623T667 607T663 570V224Q663 102 597 45T382 -12ZM424 735L320 848Q304 867 300 876T296 896Q296 914 310 927T343 940Q359 940 372 932T396 904L474 735H424Z"></glyph>
      <glyph unicode="Ú" d="M382 -12Q236 -12 171 44T105 224V570Q105 595 101 607T82 623T33 627V660H330V627Q297 627 282 624T262 608T257 570V219Q257 157 269 115T310 52T384 31Q430 31 458 51T500 114T513 219V570Q513 595 509 607T489 623T440 627V660H735V627Q701 627 686 623T667 607T663 570V224Q663 102 597 45T382 -12ZM295 743L373 912Q383 932 396 940T426 948Q445 948 459 935T473 904Q473 894 469 885T449 856L345 743H295Z"></glyph>
      <glyph unicode="Û" d="M382 -12Q236 -12 171 44T105 224V570Q105 595 101 607T82 623T33 627V660H330V627Q297 627 282 624T262 608T257 570V219Q257 157 269 115T310 52T384 31Q430 31 458 51T500 114T513 219V570Q513 595 509 607T489 623T440 627V660H735V627Q701 627 686 623T667 607T663 570V224Q663 102 597 45T382 -12ZM227 730L339 903H430L540 730H490L382 823L277 730H227Z"></glyph>
      <glyph unicode="Ü" d="M382 -12Q236 -12 171 44T105 224V570Q105 595 101 607T82 623T33 627V660H330V627Q297 627 282 624T262 608T257 570V219Q257 157 269 115T310 52T384 31Q430 31 458 51T500 114T513 219V570Q513 595 509 607T489 623T440 627V660H735V627Q701 627 686 623T667 607T663 570V224Q663 102 597 45T382 -12ZM481 744Q453 744 434 764T414 811Q414 839 434 859T481 879Q509 879 528 859T548 811Q548 784 529 764T481 744ZM287 744Q259 744 239 764T219 811Q219 839 238 859T286 879Q314 879 334 859T354 811Q354 784 335 764T287 744Z"></glyph>
      <glyph unicode="Ý" d="M178 0V33Q214 33 230 37T250 53T255 90V254L94 577Q85 596 76 606T53 622T11 627V660H322V627H280Q262 627 256 616T263 577L386 317H388L504 568Q514 589 512 601T502 620T481 627H443V660H647V627Q621 627 606 621T579 601T556 563L404 265V90Q404 65 409 53T432 37T485 33V0H178ZM235 743L313 912Q323 932 336 940T366 948Q385 948 399 935T413 904Q413 894 409 885T389 856L285 743H235Z"></glyph>
      <glyph unicode="Þ" d="M37 0V33Q72 33 87 37T106 53T110 91V569Q110 594 107 606T88 622T37 627V660H335V627Q304 627 288 623T267 607T262 569V522H328Q409 522 466 504T553 447T584 349Q584 292 558 256T489 200T397 174T299 167H262V91Q262 67 266 55T286 38T337 33V0H37ZM262 207H298Q363 207 396 241T429 345Q429 413 398 447T308 482Q279 482 271 475T262 449V207Z"></glyph>
      <glyph unicode="ß" d="M435 -12Q380 -12 349 11T318 69Q318 91 332 108T373 126Q394 126 407 115T421 82Q421 71 418 65T411 54T407 43Q407 33 418 29T441 24Q456 24 466 32T481 53T486 84Q486 112 474 132T441 169T393 203Q339 240 318 276T296 349Q296 395 321 426T395 475Q405 494 409 514T413 555Q413 593 403 618T373 655T326 668Q304 668 287 659T258 629T239 575T232 492V83Q232 62 235 52T250 37T283 33V0H26V33Q54 33 67 36T85 49T90 77V452Q90 583 148 643T329 704Q385 704 424 693T488 660T524 612T536 551Q536 525 530 506T515 475Q477 473 446 450T415 388Q415 366 426 348T454 316T492 286Q523 264 548 241T588 191T604 127Q604 65 558 27T435 -12ZM26 433V470H140V433H26Z"></glyph>
      <glyph unicode="à" d="M407 -11Q375 -11 354 -2T323 23T313 59V355Q313 397 297 418T238 440Q223 440 210 437T188 428T180 414Q180 405 186 398T199 383T205 357Q205 332 187 313T136 294Q103 294 85 313T67 356Q67 385 89 413T161 461T289 480Q375 480 414 442T454 320V100Q454 63 461 52T482 40Q494 40 501 43T516 50L527 21Q502 5 473 -3T407 -11ZM175 -11Q109 -11 73 16T37 95Q37 145 77 183T189 247T357 287V249Q263 231 221 200T178 118Q178 81 194 65T242 49Q264 49 283 59T319 83T345 107L356 74Q337 55 312 35T254 2T175 -11ZM305 545L201 658Q185 677 181 686T177 706Q177 724 191 737T224 750Q240 750 253 742T277 714L355 545H305Z"></glyph>
      <glyph unicode="á" d="M407 -11Q375 -11 354 -2T323 23T313 59V355Q313 397 297 418T238 440Q223 440 210 437T188 428T180 414Q180 405 186 398T199 383T205 357Q205 332 187 313T136 294Q103 294 85 313T67 356Q67 385 89 413T161 461T289 480Q375 480 414 442T454 320V100Q454 63 461 52T482 40Q494 40 501 43T516 50L527 21Q502 5 473 -3T407 -11ZM175 -11Q109 -11 73 16T37 95Q37 145 77 183T189 247T357 287V249Q263 231 221 200T178 118Q178 81 194 65T242 49Q264 49 283 59T319 83T345 107L356 74Q337 55 312 35T254 2T175 -11ZM176 553L254 722Q264 742 277 750T307 758Q326 758 340 745T354 714Q354 704 350 695T330 666L226 553H176Z"></glyph>
      <glyph unicode="â" d="M407 -11Q375 -11 354 -2T323 23T313 59V355Q313 397 297 418T238 440Q223 440 210 437T188 428T180 414Q180 405 186 398T199 383T205 357Q205 332 187 313T136 294Q103 294 85 313T67 356Q67 385 89 413T161 461T289 480Q375 480 414 442T454 320V100Q454 63 461 52T482 40Q494 40 501 43T516 50L527 21Q502 5 473 -3T407 -11ZM175 -11Q109 -11 73 16T37 95Q37 145 77 183T189 247T357 287V249Q263 231 221 200T178 118Q178 81 194 65T242 49Q264 49 283 59T319 83T345 107L356 74Q337 55 312 35T254 2T175 -11ZM108 540L220 713H311L421 540H371L263 633L158 540H108Z"></glyph>
      <glyph unicode="ã" d="M407 -11Q375 -11 354 -2T323 23T313 59V355Q313 397 297 418T238 440Q223 440 210 437T188 428T180 414Q180 405 186 398T199 383T205 357Q205 332 187 313T136 294Q103 294 85 313T67 356Q67 385 89 413T161 461T289 480Q375 480 414 442T454 320V100Q454 63 461 52T482 40Q494 40 501 43T516 50L527 21Q502 5 473 -3T407 -11ZM175 -11Q109 -11 73 16T37 95Q37 145 77 183T189 247T357 287V249Q263 231 221 200T178 118Q178 81 194 65T242 49Q264 49 283 59T319 83T345 107L356 74Q337 55 312 35T254 2T175 -11ZM327 551Q298 551 274 562T228 585T180 596Q156 596 144 584T127 555H95Q100 585 112 613T147 661T205 681Q235 681 258 670T305 647T355 635Q379 635 389 646T403 676H436Q432 648 420 619T385 571T327 551Z"></glyph>
      <glyph unicode="ä" d="M407 -11Q375 -11 354 -2T323 23T313 59V355Q313 397 297 418T238 440Q223 440 210 437T188 428T180 414Q180 405 186 398T199 383T205 357Q205 332 187 313T136 294Q103 294 85 313T67 356Q67 385 89 413T161 461T289 480Q375 480 414 442T454 320V100Q454 63 461 52T482 40Q494 40 501 43T516 50L527 21Q502 5 473 -3T407 -11ZM175 -11Q109 -11 73 16T37 95Q37 145 77 183T189 247T357 287V249Q263 231 221 200T178 118Q178 81 194 65T242 49Q264 49 283 59T319 83T345 107L356 74Q337 55 312 35T254 2T175 -11ZM362 554Q334 554 315 574T295 621Q295 649 315 669T362 689Q390 689 409 669T429 621Q429 594 410 574T362 554ZM168 554Q140 554 120 574T100 621Q100 649 119 669T167 689Q195 689 215 669T235 621Q235 594 216 574T168 554Z"></glyph>
      <glyph unicode="å" d="M407 -11Q375 -11 354 -2T323 23T313 59V355Q313 397 297 418T238 440Q223 440 210 437T188 428T180 414Q180 405 186 398T199 383T205 357Q205 332 187 313T136 294Q103 294 85 313T67 356Q67 385 89 413T161 461T289 480Q375 480 414 442T454 320V100Q454 63 461 52T482 40Q494 40 501 43T516 50L527 21Q502 5 473 -3T407 -11ZM175 -11Q109 -11 73 16T37 95Q37 145 77 183T189 247T357 287V249Q263 231 221 200T178 118Q178 81 194 65T242 49Q264 49 283 59T319 83T345 107L356 74Q337 55 312 35T254 2T175 -11ZM265 519Q223 519 194 548T164 620Q164 663 193 692T265 721Q308 721 337 692T367 620Q367 578 338 549T265 519ZM265 568Q287 568 302 583T317 620Q317 643 302 658T265 673Q244 673 229 658T214 620Q214 598 229 583T265 568Z"></glyph>
      <glyph unicode="æ" d="M534 -11Q461 -11 412 16T338 98T313 230Q313 309 338 365T414 451T544 481Q598 481 638 466T704 420T744 344T757 238V231H406V267H608Q608 365 593 405T536 445Q510 445 493 429T466 373T457 262Q457 189 468 143T505 74T578 51Q614 51 639 62T682 95T713 144L746 126Q736 103 721 80T683 35T623 2T534 -11ZM176 -11Q110 -11 74 16T37 92Q37 144 78 182T191 244T357 274V239Q263 226 221 198T178 115Q178 80 194 65T242 49Q276 49 303 64T350 96T382 123L380 72Q357 54 328 35T261 2T176 -11ZM313 255V355Q313 397 297 418T238 440Q213 440 197 433T180 414Q180 407 186 401T199 385T205 358Q205 332 187 313T136 294Q103 294 85 313T67 358Q67 389 93 417T165 462T274 480Q340 480 378 460T432 403T448 320V255H313Z"></glyph>
      <glyph unicode="ç" d="M265 -11Q193 -11 142 16T63 96T36 229Q36 292 53 339T101 418T177 465T277 481Q337 481 377 464T437 419T457 358Q457 327 441 308T389 289Q359 289 342 304T324 348Q324 363 327 372T335 389T339 406Q339 422 325 433T280 445Q251 445 230 430T197 375T186 260Q186 182 198 137T237 71T306 51Q345 51 370 64T410 99T436 144L468 128Q458 102 444 77T407 32T350 1T265 -11ZM481 -203Q461 -203 437 -200T391 -187L408 -150Q420 -155 434 -159T463 -164Q480 -164 497 -156T514 -126Q514 -110 504 -101T476 -92Q469 -92 464 -94T454 -99L437 -91L481 1H523L496 -57Q501 -55 512 -54T533 -52Q563 -52 588 -68T613 -120Q613 -152 592 -170T540 -195T481 -203Z"></glyph>
      <glyph unicode="è" d="M261 -11Q151 -11 94 50T36 234Q36 317 62 372T139 454T264 481Q322 481 364 465T432 417T471 341T484 240V231H121V267H335Q335 328 330 367T309 425T263 445Q238 445 221 429T194 373T185 262Q185 207 191 168T210 102T247 64T305 51Q340 51 365 62T409 95T440 144L474 126Q461 95 438 63T374 10T261 -11ZM300 545L196 658Q180 677 176 686T172 706Q172 724 186 737T219 750Q235 750 248 742T272 714L350 545H300Z"></glyph>
      <glyph unicode="é" d="M261 -11Q151 -11 94 50T36 234Q36 317 62 372T139 454T264 481Q322 481 364 465T432 417T471 341T484 240V231H121V267H335Q335 328 330 367T309 425T263 445Q238 445 221 429T194 373T185 262Q185 207 191 168T210 102T247 64T305 51Q340 51 365 62T409 95T440 144L474 126Q461 95 438 63T374 10T261 -11ZM172 553L250 722Q260 742 273 750T303 758Q322 758 336 745T350 714Q350 704 346 695T326 666L222 553H172Z"></glyph>
      <glyph unicode="ê" d="M261 -11Q151 -11 94 50T36 234Q36 317 62 372T139 454T264 481Q322 481 364 465T432 417T471 341T484 240V231H121V267H335Q335 328 330 367T309 425T263 445Q238 445 221 429T194 373T185 262Q185 207 191 168T210 102T247 64T305 51Q340 51 365 62T409 95T440 144L474 126Q461 95 438 63T374 10T261 -11ZM104 540L216 713H307L417 540H367L259 633L154 540H104Z"></glyph>
      <glyph unicode="ë" d="M261 -11Q151 -11 94 50T36 234Q36 317 62 372T139 454T264 481Q322 481 364 465T432 417T471 341T484 240V231H121V267H335Q335 328 330 367T309 425T263 445Q238 445 221 429T194 373T185 262Q185 207 191 168T210 102T247 64T305 51Q340 51 365 62T409 95T440 144L474 126Q461 95 438 63T374 10T261 -11ZM358 554Q330 554 311 574T291 621Q291 649 311 669T358 689Q386 689 405 669T425 621Q425 594 406 574T358 554ZM164 554Q136 554 116 574T96 621Q96 649 115 669T163 689Q191 689 211 669T231 621Q231 594 212 574T164 554Z"></glyph>
      <glyph unicode="ì" d="M22 0V33Q51 33 64 37T81 52T86 83V379Q86 402 81 409T57 417H24V450L183 475H228V83Q228 62 232 52T248 37T286 33V0H22ZM446 545L342 658Q326 677 322 686T318 706Q318 724 332 737T365 750Q381 750 394 742T418 714L496 545H446Z"></glyph>
      <glyph unicode="í" d="M22 0V33Q51 33 64 37T81 52T86 83V379Q86 402 81 409T57 417H24V450L183 475H228V83Q228 62 232 52T248 37T286 33V0H22ZM318 553L396 722Q406 742 419 750T449 758Q468 758 482 745T496 714Q496 704 492 695T472 666L368 553H318Z"></glyph>
      <glyph unicode="î" d="M22 0V33Q51 33 64 37T81 52T86 83V379Q86 402 81 409T57 417H24V450L183 475H228V83Q228 62 232 52T248 37T286 33V0H22ZM250 540L362 713H453L563 540H513L405 633L300 540H250Z"></glyph>
      <glyph unicode="ï" d="M22 0V33Q51 33 64 37T81 52T86 83V379Q86 402 81 409T57 417H24V450L183 475H228V83Q228 62 232 52T248 37T286 33V0H22ZM504 554Q476 554 457 574T437 621Q437 649 457 669T504 689Q532 689 551 669T571 621Q571 594 552 574T504 554ZM310 554Q282 554 262 574T242 621Q242 649 261 669T309 689Q337 689 357 669T377 621Q377 594 358 574T310 554Z"></glyph>
      <glyph unicode="ð" d="M281 -12Q160 -12 98 50T35 234Q35 356 97 418T275 480Q296 480 305 479T320 476L321 477Q279 536 228 583T108 673L151 707Q214 675 262 644T350 579T424 507Q461 467 484 428T519 344T531 246Q531 121 469 55T281 -12ZM287 24Q341 24 361 77T381 232Q381 304 372 351T342 421T285 444Q231 444 208 392T185 237Q185 135 208 80T287 24ZM120 500L94 538L429 684L455 645L120 500Z"></glyph>
      <glyph unicode="ñ" d="M344 0V33Q367 33 378 36T392 49T396 78V318Q396 355 388 377T363 410T323 420Q293 420 271 405T222 364L219 398Q239 419 264 438T320 469T393 481Q459 481 498 444T537 324V83Q537 62 541 52T559 37T599 33V0H344ZM25 0V33Q54 33 67 36T85 51T89 83V379Q89 401 84 409T60 417H27V450L184 475H227V409H231V81Q231 60 235 50T251 36T286 33V0H25ZM370 551Q341 551 317 562T271 585T223 596Q199 596 187 584T170 555H138Q143 585 155 613T190 661T248 681Q278 681 301 670T348 647T398 635Q422 635 432 646T446 676H479Q475 648 463 619T428 571T370 551Z"></glyph>
      <glyph unicode="ò" d="M283 -11Q157 -11 96 49T35 234Q35 360 97 421T285 482Q410 482 470 422T531 236Q531 110 471 50T283 -11ZM284 24Q337 24 360 76T381 236Q380 345 358 395T282 446Q229 446 207 392T184 233Q184 124 207 74T284 24ZM323 545L219 658Q203 677 199 686T195 706Q195 724 209 737T242 750Q258 750 271 742T295 714L373 545H323Z"></glyph>
      <glyph unicode="ó" d="M283 -11Q157 -11 96 49T35 234Q35 360 97 421T285 482Q410 482 470 422T531 236Q531 110 471 50T283 -11ZM284 24Q337 24 360 76T381 236Q380 345 358 395T282 446Q229 446 207 392T184 233Q184 124 207 74T284 24ZM194 553L272 722Q282 742 295 750T325 758Q344 758 358 745T372 714Q372 704 368 695T348 666L244 553H194Z"></glyph>
      <glyph unicode="ô" d="M283 -11Q157 -11 96 49T35 234Q35 360 97 421T285 482Q410 482 470 422T531 236Q531 110 471 50T283 -11ZM284 24Q337 24 360 76T381 236Q380 345 358 395T282 446Q229 446 207 392T184 233Q184 124 207 74T284 24ZM126 540L238 713H329L439 540H389L281 633L176 540H126Z"></glyph>
      <glyph unicode="õ" d="M283 -11Q157 -11 96 49T35 234Q35 360 97 421T285 482Q410 482 470 422T531 236Q531 110 471 50T283 -11ZM284 24Q337 24 360 76T381 236Q380 345 358 395T282 446Q229 446 207 392T184 233Q184 124 207 74T284 24ZM345 551Q316 551 292 562T246 585T198 596Q174 596 162 584T145 555H113Q118 585 130 613T165 661T223 681Q253 681 276 670T323 647T373 635Q397 635 407 646T421 676H454Q450 648 438 619T403 571T345 551Z"></glyph>
      <glyph unicode="ö" d="M283 -11Q157 -11 96 49T35 234Q35 360 97 421T285 482Q410 482 470 422T531 236Q531 110 471 50T283 -11ZM284 24Q337 24 360 76T381 236Q380 345 358 395T282 446Q229 446 207 392T184 233Q184 124 207 74T284 24ZM380 554Q352 554 333 574T313 621Q313 649 333 669T380 689Q408 689 427 669T447 621Q447 594 428 574T380 554ZM186 554Q158 554 138 574T118 621Q118 649 137 669T185 689Q213 689 233 669T253 621Q253 594 234 574T186 554Z"></glyph>
      <glyph unicode="÷" d="M30 194V279H499V194H30ZM264 -29Q233 -29 211 -6T188 49Q188 81 210 103T264 126Q297 126 319 104T342 49Q342 17 320 -6T264 -29ZM264 347Q233 347 211 370T188 424Q188 456 210 479T264 502Q297 502 319 479T342 424Q342 393 320 370T264 347Z"></glyph>
      <glyph unicode="ø" d="M37 -6L442 476H495L91 -6H37ZM287 -11Q161 -11 100 49T39 234Q39 360 100 421T289 482Q414 482 474 422T534 236Q534 110 474 50T287 -11ZM287 24Q341 24 363 76T385 236Q384 345 361 395T286 446Q232 446 210 392T188 233Q188 124 210 74T287 24Z"></glyph>
      <glyph unicode="ù" d="M227 -12Q160 -12 122 25T84 143V381Q84 404 78 411T54 419H21V452L181 475H225V155Q225 117 233 94T259 61T299 50Q318 50 334 57T366 78T398 108L402 75Q389 60 366 40T309 4T227 -12ZM394 0V64H390V381Q390 404 385 411T361 419H328V452L487 475H531V72Q531 55 535 47T553 36T592 33V0H394ZM344 545L240 658Q224 677 220 686T216 706Q216 724 230 737T263 750Q279 750 292 742T316 714L394 545H344Z"></glyph>
      <glyph unicode="ú" d="M227 -12Q160 -12 122 25T84 143V381Q84 404 78 411T54 419H21V452L181 475H225V155Q225 117 233 94T259 61T299 50Q318 50 334 57T366 78T398 108L402 75Q389 60 366 40T309 4T227 -12ZM394 0V64H390V381Q390 404 385 411T361 419H328V452L487 475H531V72Q531 55 535 47T553 36T592 33V0H394ZM216 553L294 722Q304 742 317 750T347 758Q366 758 380 745T394 714Q394 704 390 695T370 666L266 553H216Z"></glyph>
      <glyph unicode="û" d="M227 -12Q160 -12 122 25T84 143V381Q84 404 78 411T54 419H21V452L181 475H225V155Q225 117 233 94T259 61T299 50Q318 50 334 57T366 78T398 108L402 75Q389 60 366 40T309 4T227 -12ZM394 0V64H390V381Q390 404 385 411T361 419H328V452L487 475H531V72Q531 55 535 47T553 36T592 33V0H394ZM148 540L260 713H351L461 540H411L303 633L198 540H148Z"></glyph>
      <glyph unicode="ü" d="M227 -12Q160 -12 122 25T84 143V381Q84 404 78 411T54 419H21V452L181 475H225V155Q225 117 233 94T259 61T299 50Q318 50 334 57T366 78T398 108L402 75Q389 60 366 40T309 4T227 -12ZM394 0V64H390V381Q390 404 385 411T361 419H328V452L487 475H531V72Q531 55 535 47T553 36T592 33V0H394ZM402 554Q374 554 355 574T335 621Q335 649 355 669T402 689Q430 689 449 669T469 621Q469 594 450 574T402 554ZM208 554Q180 554 160 574T140 621Q140 649 159 669T207 689Q235 689 255 669T275 621Q275 594 256 574T208 554Z"></glyph>
      <glyph unicode="ý" d="M114 -211Q87 -211 64 -200T28 -168T14 -122Q14 -95 32 -75T80 -54Q108 -54 124 -71T141 -114Q141 -127 137 -134T129 -146T124 -158Q124 -165 129 -169T142 -173Q160 -173 177 -151T214 -77L399 407Q404 421 399 429T381 437H348V470H507V437Q491 437 480 434T460 419T440 382L289 12Q271 -31 256 -71T222 -143T178 -193T114 -211ZM244 -42L63 396Q56 415 49 423T30 434T-6 437V470H260V437H229Q217 437 212 429T212 402L302 160H328L244 -42ZM158 553L236 722Q246 742 259 750T289 758Q308 758 322 745T336 714Q336 704 332 695T312 666L208 553H158Z"></glyph>
      <glyph unicode="þ" d="M12 -200V-167Q41 -167 54 -164T72 -150T76 -117V598Q76 619 70 625T42 632H14V666L174 690H217V-117Q217 -138 221 -148T240 -163T282 -167V-200H12ZM308 -12Q281 -12 259 -8T217 5T175 23V123Q185 109 197 92T224 59T257 34T300 24Q354 24 379 72T404 229Q404 322 380 373T303 425Q278 425 258 413T224 385T203 362V411Q222 432 244 447T296 472T362 481Q451 481 502 422T553 248Q553 163 524 106T441 18T308 -12Z"></glyph>
      <glyph unicode="ÿ" d="M114 -211Q87 -211 64 -200T28 -168T14 -122Q14 -95 32 -75T80 -54Q108 -54 124 -71T141 -114Q141 -127 137 -134T129 -146T124 -158Q124 -165 129 -169T142 -173Q160 -173 177 -151T214 -77L399 407Q404 421 399 429T381 437H348V470H507V437Q491 437 480 434T460 419T440 382L289 12Q271 -31 256 -71T222 -143T178 -193T114 -211ZM244 -42L63 396Q56 415 49 423T30 434T-6 437V470H260V437H229Q217 437 212 429T212 402L302 160H328L244 -42ZM600 554Q572 554 553 574T533 621Q533 649 553 669T600 689Q628 689 647 669T667 621Q667 594 648 574T600 554ZM406 554Q378 554 358 574T338 621Q338 649 357 669T405 689Q433 689 453 669T473 621Q473 594 454 574T406 554Z"></glyph>
      <glyph unicode="–" d="M0 213V289H416V213H0Z"></glyph>
      <glyph unicode="—" d="M0 212V288H859V212H0Z"></glyph>
      <glyph unicode="‘" d="M157 423Q127 423 103 444T78 520Q78 561 93 596T139 656T213 686L217 654Q204 653 187 646T158 627T146 598Q146 587 152 583T169 575Q185 571 199 562T223 539T233 501Q233 470 213 447T157 423Z"></glyph>
      <glyph unicode="’" d="M97 423L93 454Q106 456 122 463T151 482T164 510Q164 522 158 526T140 533Q125 538 110 546T86 570T77 608Q77 639 97 662T153 686Q182 686 207 665T232 588Q232 548 216 513T170 453T97 423Z"></glyph>
      <glyph unicode="‚" d="M97 -119L93 -88Q106 -86 122 -79T151 -60T164 -32Q164 -19 158 -16T141 -9Q126 -4 111 5T87 28T77 66Q77 98 97 121T153 144Q183 144 207 123T232 47Q232 6 216 -29T171 -88T97 -119Z"></glyph>
      <glyph unicode="“" d="M336 423Q307 423 282 444T257 521Q257 562 273 597T319 656T392 686L396 655Q384 653 367 646T338 627T325 599Q325 587 331 583T348 576Q365 572 379 563T403 539T412 501Q412 470 392 447T336 423ZM143 423Q114 423 89 444T64 520Q64 561 80 596T126 656T199 686L203 654Q191 653 174 646T145 627T132 598Q132 587 138 583T155 575Q172 571 186 562T210 539T219 501Q219 470 199 447T143 423Z"></glyph>
      <glyph unicode="”" d="M277 423L273 455Q286 457 302 464T331 482T344 511Q344 523 338 527T321 534Q306 538 291 547T267 571T257 608Q257 640 277 663T333 686Q363 686 387 665T412 589Q412 548 396 513T351 454T277 423ZM84 423L80 454Q93 456 109 463T138 482T151 510Q151 522 145 526T128 533Q113 538 98 546T74 570T64 608Q64 639 84 662T140 686Q170 686 194 665T219 588Q219 548 203 513T158 453T84 423Z"></glyph>
      <glyph unicode="„" d="M277 -119L273 -88Q286 -86 302 -79T331 -60T344 -32Q344 -19 338 -16T321 -9Q306 -4 291 5T267 28T257 66Q257 98 277 121T333 144Q363 144 387 123T412 47Q412 6 396 -29T351 -88T277 -119ZM84 -119L80 -88Q93 -86 109 -79T138 -61T151 -32Q151 -20 145 -16T128 -9Q113 -4 98 4T74 28T64 65Q64 97 84 120T140 143Q170 143 194 122T219 46Q219 5 203 -30T158 -89T84 -119Z"></glyph>
      <glyph unicode="•" d="M200 167Q155 167 118 189T59 248T37 331Q37 377 58 414T117 473T200 495Q246 495 283 473T342 414T364 331Q364 286 342 249T283 189T200 167Z"></glyph>
      <glyph unicode="‹" d="M242 29L41 243L243 458H272L189 243L272 29H242Z"></glyph>
      <glyph unicode="›" d="M39 29L122 243L39 458H68L270 243L69 29H39Z"></glyph>
    </font>
</defs>
</svg>
